Painkiller Jane Serie Tv Streaming Download | Russell Tovey | The.Legend.of.Zelda.Majoras.Mask.3D.EUR.3DS-CONTRASTReport

Скачать через торрент Иерей-сан. Исповедь самурая Фильм бесплатно в хорошем качестве torrent

Скачивайте на UnionPeer.org фильмы через торрент без регистрации. Новинки кино в хорошем качестве через торрент. На UnionPeer.org можно скачать через торрент фильмы 2014 и 2015 годов. Самые новые фильмы.

Скачать торрент Иерей-сан. Исповедь самурая бесплатно через .torrent фильм мультфильм сериал

Если у вас наблюдаются проблемы со скриншотами, переходом по ссылками, скачиванием торрентов - проблемы в блокировщике рекламы AdBlock. #хорошегоДня!


Статистика раздачи
Размер:  9.94 GB   |    Зарегистрирован:  16 дней   |    .torrent скачан:  80 раз   |   
Раздают:  4   Качают:  1  
   
Загрузка...
 
Автор Сообщение

Galfimbul

avatar Galfimbul


Иерей-сан. Исповедь самурая

Год выхода: 2015
Жанр: боевик, драма
Режиссер: Егор Баранов
В ролях: Кэри-Хироюки Тагава, Пётр Фёдоров, Иван Охлобыстин, Игорь Жижикин, Петр Мамонов, Дарья Екамасова, Любовь Толкалина, Людмила Чурсина, Надежда Маркина, Алина Бабак

О фильме:
Главный герой — Такуро Накамура, в крещении отец Николай — священник японской православной церкви, в прошлом профессиональный спортсмен, а в настоящем — родной брат главы одного из влиятельных кланов якудза. Однажды он не смог пройти мимо насилия и защитил обычную девушку, вступив в схватку с людьми из враждебной брату группировки. Война кланов якудза неизбежна. Став заложником криминальных «разборок», священник подвергается смертельной опасности и его отправляют служить в российское село Глубокое, раздираемое внутренними конфликтами. Это место крайне интересно Андрею Нелюбину для земельных махинаций, и он готов пойти на все, чтобы жители покинули родные земли. Отец Николай объединяет сельчан вокруг полуразрушенной церкви. Восстанавливая храм, они возродили мир между собой и приняли вызов. Началась уже совсем другая война…



Страна: Россия
Студия: Студия Ортодокс
Продолжительность: 01:37:46
Перевод: Оригинальный (Blu-ray RUS)

Файл
Формат: Matroska
Видео: 1920x804 at 25.000 fps, [email protected] ~12400 kbps avg
Аудио#1: Russian: 48 kHz, DTS, 3/2 (L,C,R,l,r) + LFE ch, ~1509.00 kbps avg
Аудио#2: Russian: 48 kHz, AC3, 3/2 (L,C,R,l,r) + LFE ch ~640.00 kbps avg
Субтитры: Russian (Forced - Hardsub)

***Сохранены оригинальные главы как на Blu-ray.
***Видеоряд - bog3417.
Общее
Уникальный идентификатор : 213459589113710470889403878826790885798 (0xA096D24B243CA009AD7049F0653019A6)
Полное имя : Ierey-san.Ispoved.samuraya.2015.BDRip.1080p.mkv
Формат : Matroska
Версия формата : Version 2
Размер файла : 9,94 Гбайт
Продолжительность : 1 ч. 37 м.
Общий поток : 14,5 Мбит/сек
Название фильма : [email protected]
Дата кодирования : UTC 2016-01-17 17:24:11
Программа кодирования : mkvmerge v7.9.0 ('Birds') 64bit
Библиотека кодирования : libebml v1.3.1 + libmatroska v1.4.2

Видео
Идентификатор : 1
Формат : AVC
Формат/Информация : Advanced Video Codec
Профиль формата : [email protected]
Параметр CABAC формата : Да
Параметр ReFrames формата : 5 кадров
Идентификатор кодека : V_MPEG4/ISO/AVC
Продолжительность : 1 ч. 37 м.
Битрейт : 12,4 Мбит/сек
Ширина : 1920 пикселей
Высота : 804 пикселя
Соотношение сторон : 2,40:1
Режим частоты кадров : Постоянный
Частота кадров : 25,000 кадров/сек
Цветовое пространство : YUV
Субдискретизация насыщенности : 4:2:0
Битовая глубина : 8 бит
Тип развёртки : Прогрессивная
Бит/(Пиксели*Кадры) : 0.321
Размер потока : 8,27 Гбайт (83%)
Заголовок : [email protected]
Библиотека кодирования : x264 core 148 r2638 7599210
Настройки программы : cabac=1 / ref=5 / deblock=1:-3:-3 / analyse=0x3:0x133 / me=umh / subme=11 / psy=1 / psy_rd=1.00:0.00 / mixed_ref=1 / me_range=48 / chroma_me=1 / trellis=2 / 8x8dct=1 / cqm=0 / deadzone=21,11 / fast_pskip=0 / chroma_qp_offset=-2 / threads=12 / lookahead_threads=2 / sliced_threads=0 / nr=0 / decimate=0 / interlaced=0 / bluray_compat=0 / constrained_intra=0 / bframes=9 / b_pyramid=2 / b_adapt=2 / b_bias=0 / direct=3 / weightb=1 / open_gop=0 / weightp=2 / keyint=250 / keyint_min=25 / scenecut=40 / intra_refresh=0 / rc=2pass / mbtree=0 / bitrate=12400 / ratetol=1.0 / qcomp=0.60 / qpmin=0 / qpmax=69 / qpstep=4 / cplxblur=20.0 / qblur=0.5 / ip_ratio=1.40 / pb_ratio=1.30 / aq=3:0.70
Язык : English
Default : Да
Forced : Нет

Аудио #1
Идентификатор : 2
Формат : DTS
Формат/Информация : Digital Theater Systems
Режим : 16
Параметр Endianness формата : Big
Идентификатор кодека : A_DTS
Продолжительность : 1 ч. 37 м.
Вид битрейта : Постоянный
Битрейт : 1509 Кбит/сек
Каналы : 6 каналов
Расположение каналов : Front: L C R, Side: L R, LFE
Частота : 48,0 КГц
Битовая глубина : 16 бит
Метод сжатия : С потерями
Размер потока : 1,03 Гбайт (10%)
Язык : Russian
Default : Да
Forced : Нет

Аудио #2
Идентификатор : 3
Формат : AC-3
Формат/Информация : Audio Coding 3
Расширение режима : CM (complete main)
Параметр Endianness формата : Big
Идентификатор кодека : A_AC3
Продолжительность : 1 ч. 37 м.
Вид битрейта : Постоянный
Битрейт : 640 Кбит/сек
Каналы : 6 каналов
Расположение каналов : Front: L C R, Side: L R, LFE
Частота : 48,0 КГц
Метод сжатия : С потерями
Размер потока : 448 Мбайт (4%)
Язык : Russian
Default : Нет
Forced : Нет

Меню
00:00:00.000 : en:00:00:00.000
00:00:33.440 : en:00:00:33.440
00:12:39.360 : en:00:12:39.360
00:25:40.160 : en:00:25:40.160
00:38:11.680 : en:00:38:11.680
00:49:09.040 : en:00:49:09.040
00:58:40.920 : en:00:58:40.920
01:10:12.120 : en:01:10:12.120
01:24:47.800 : en:01:24:47.800
Источник http://arutor.org

Трекер:  [ 06-Июл-2017 19:40 ]

  

Скачать .torrent

Размер .torrent файла 50 KB


Размер: 9.94 GB
Хэш (hash) релиза: 2da6d5541535112619a7a291e795993046024c07
Подписка на обновления:

Торренты, похожие на Иерей-сан. Исповедь самурая скачать торрент

Форум Название Автор Размер S L Добавлен
Российские фильмы до 2016 ·· Иерей-сан. Исповедь самурая (Егор Баранов) [2015, Россия, боевик, драма, BDRip-AVC] Galfimbul 15667933691.46 GB 2 0 1453138528

20:35

18-Янв-16

Российские фильмы до 2016 ·· Иерей-сан. Исповедь самурая (Егор Баранов) [2015, Россия, боевик, драма, Blu-ray disc 1080i] [RUS] + Original Rus Galfimbul 1883882640917.55 GB 0 0 1453049637

19:53

17-Янв-16

Российские фильмы до 2016 ·· Иерей-сан. Исповедь самурая (Дмитрий Месхиев) [2015, Боевик, драма, BDRip] Galfimbul 15647232001.46 GB 0 0 1453019771

11:36

17-Янв-16

Российские фильмы до 2016 ·· Иерей-сан. Исповедь самурая (Егор Баранов) [2015, боевик, драма, HDRip] iTunes Galfimbul 779202560743 MB 0 0 1452962578

19:42

16-Янв-16

Российские фильмы до 2016 ·· Иерей-сан. Исповедь самурая (Егор Баранов) [2015, боевик, драма, BDRip 720p] iTunes Galfimbul 56175972525.23 GB 0 0 1452932159

11:15

16-Янв-16

Российские фильмы до 2016 ·· Иерей-сан. Исповедь самурая (Егор Баранов) [2015, боевик, драма, Blu-ray 1080i] iTunes Galfimbul 1883882640917.55 GB 0 0 1452928241

10:10

16-Янв-16

Российские фильмы до 2016 ·· Иерей-сан. Исповедь самурая (Егор Баранов) [2015, Россия, боевик, драма, WEB-DL 720p] + Original Rus Galfimbul 34223292683.19 GB 0 0 1451919266

17:54

4-Янв-16

Российские фильмы до 2016 ·· Иерей-сан. Исповедь самурая (Егор Баранов) [2015, Россия, боевик, драма, WEB-DL 1080p] + Original Rus Galfimbul 37301310903.47 GB 0 0 1451919260

17:54

4-Янв-16

Российские фильмы до 2016 ·· Иерей-сан. Исповедь самурая (Егор Баранов) [2015, боевик, драма, WEB-DL 1080p] iTunes Galfimbul 37301310903.47 GB 0 0 1451114134

10:15

26-Дек-15

Российские фильмы до 2016 ·· Иерей-сан. Исповедь самурая (Егор Баранов) [2015, боевик, драма, WEBRip 720p] iTunes Galfimbul 34223292683.19 GB 0 0 1451081765

01:16

26-Дек-15

Российские фильмы до 2016 ·· Иерей-сан. Исповедь самурая (Егор Баранов) [2015, боевик, драма, WEB-DLRip] iTunes Galfimbul 15684239361.46 GB 2 0 1451078060

00:14

26-Дек-15

Еще никто не оставлял запись к записи скачать торрент Иерей-сан. Исповедь самурая . Будь первым!

!Обратная связь