Скачать через торрент Игра престолов Game of Thrones Фильм бесплатно в хорошем качестве torrent

Скачивайте на UnionPeer.org фильмы через торрент без регистрации. Новинки кино в хорошем качестве через торрент. На UnionPeer.org можно скачать через торрент фильмы 2014 и 2015 годов. Самые новые фильмы.

Скачать торрент Игра престолов Game of Thrones бесплатно через .torrent фильм мультфильм сериал

Если у вас наблюдаются проблемы со скриншотами, переходом по ссылками, скачиванием торрентов - проблемы в блокировщике рекламы AdBlock. #хорошегоДня!


Статистика раздачи
Размер:  3.59 GB   |    Зарегистрирован:  6 дней   |    .torrent скачан:  601 раз   |   
Раздают:  23  
   
Загрузка...
 
Автор Сообщение

Galfimbul

avatar Galfimbul


Игра престолов | Game of Thrones
• Год выпуска: 2016
• Страна: США
• Жанр: Фэнтези, драма, приключения, экранизация
• Продолжительность: ~ 00:55:00• Перевод: Профессиональный (дублированный) | Amedia - Kravec• Режиссёр: Алан Тейлор, Даниэль Минахан, Дэвид Наттер, Брайан Кирк, Тимоти Ван Паттен, Дэвид Петрарка• В ролях: Лена Хиди, Питер Динклэйдж, Мишель Фэйрли, Эмилия Кларк, Кит Харингтон, Николай Костер-Валдау, Иэн Глен, Эйден Гиллен, Элфи Оуэн-Аллен, Мэйси Уильямс, Софи Тернер, Сибель Кекилли, Джеймс Космо, Стивен Диллэйн, Гетин Энтони, Гвендолин Кристи, Натали Дормер• Описание: «Игра престолов» новый сериал HBO, основанный на бестселлерах Джорджа Р.Р. Мартина. В мире, где лето и зимы длятся десятилетиями, на кону корона Вестероса. Предательство, похоть, интриги и сверхъестественные силы сотрясают все четыре стороны Королевства — от плетущего интриги юга, диких восточных земель, до замерзшего севера и древней Стены, что защищает королевство от тьмы за нею. Короли и королевы, рыцари и мятежники, лжецы и благородные люди борются за власть в кровавом сражении за Железный Трон.
<div class="post-box" style="border-color: #ececec; background: #004e5e;"></div>
• Качество: HDTVRip 1080p
• Формат: MKV
• Видео: X264, 1920x1078 (16:9), 23.976 fps, ~10000 kbps
• Аудио 1: AC3, 48 kHz, 2 ch, 192 kbps - Rus
• Аудио 2: AC3, 48 kHz, 6 ch, 384 kbps - Eng
• Субтитры: Русские форсированные, русские полные (Амедиа), английские полные. (SRT) встроенные и внешние, (ASS) анимированные - только внешним файлом.
Общее
Общее
Уникальный идентификатор                 : 182986495857527372129341085254258804669 (0x89A9EACC3F098D85B8514632FB1C47BD)
Полное имя                               : X:\ATorrent\GOT (Season 06) DUB 1080\GOT.[S06E01].1080.DUB.[qqss44].mkv
Формат                                   : Matroska
Версия формата                           : Version 2
Размер файла                             : 3,77 Гбайт
Продолжительность                        : 49 м.
Общий поток                              : 10,8 Мбит/сек
Дата кодирования                         : UTC 2016-04-25 08:59:39
Программа кодирования                    : mkvmerge v7.9.0 ('Birds') 64bit
Библиотека кодирования                   : libebml v1.3.1 + libmatroska v1.4.2

Видео
Идентификатор                            : 1
Формат                                   : AVC
Формат/Информация                        : Advanced Video Codec
Профиль формата                          : [email protected]
Параметр CABAC формата                   : Да
Параметр ReFrames формата                : 4 кадра
Идентификатор кодека                     : V_MPEG4/ISO/AVC
Продолжительность                        : 49 м.
Битрейт                                  : 10,2 Мбит/сек
Ширина                                   : 1920 пикселей
Высота                                   : 1078 пикселей
Соотношение сторон                       : 16:9
Режим частоты кадров                     : Постоянный
Частота кадров                           : 23,976 (24000/1001) кадра/сек
Цветовое пространство                    : YUV
Субдискретизация насыщенности            : 4:2:0
Битовая глубина                          : 8 бит
Тип развёртки                            : Прогрессивная
Бит/(Пиксели*Кадры)                      : 0.206
Размер потока                            : 3,57 Гбайт (95%)
Библиотека кодирования                   : x264 core 148 r2665+53 6629127 t_mod_Custom [[email protected] X86_64]
Настройки программы                      : cabac=1 / ref=4 / deblock=1:-3:-3 / analyse=0x3:0x113 / me=umh / subme=11 / psy=1 / fade_compensate=0.00 / psy_rd=1.00:0.00 / mixed_ref=1 / me_range=32 / chroma_me=1 / trellis=2 / 8x8dct=1 / cqm=0 / deadzone=21,11 / fast_pskip=0 / chroma_qp_offset=-2 / threads=24 / lookahead_threads=4 / sliced_threads=0 / nr=0 / decimate=0 / interlaced=0 / bluray_compat=0 / constrained_intra=0 / fgo=0 / bframes=8 / b_pyramid=2 / b_adapt=2 / b_bias=0 / direct=3 / weightb=1 / open_gop=0 / weightp=2 / keyint=250 / keyint_min=23 / scenecut=40 / intra_refresh=0 / rc_lookahead=60 / rc=crf / mbtree=0 / crf=17.0000 / qcomp=0.60 / qpmin=0:0:0 / qpmax=69:69:69 / qpstep=4 / vbv_maxrate=62500 / vbv_bufsize=78125 / crf_max=0.0 / nal_hrd=none / filler=0 / ip_ratio=1.40 / pb_ratio=1.30 / aq=3:0.80 / aq-sensitivity=10.00 / aq-factor=1.00:1.00:1.00 / aq2=0 / aq3=0
Язык                                     : English
Default                                  : Да
Forced                                   : Нет
Цветовой диапазон                        : Limited
Коэффициенты матрицы                     : BT.709

Аудио #1
Идентификатор                            : 2
Формат                                   : AC-3
Формат/Информация                        : Audio Coding 3
Расширение режима                        : CM (complete main)
Параметр Endianness формата              : Big
Идентификатор кодека                     : A_AC3
Продолжительность                        : 49 м.
Вид битрейта                             : Постоянный
Битрейт                                  : 192 Кбит/сек
Каналы                                   : 2 канала
Расположение каналов                     : Front: L R
Частота                                  : 48,0 КГц
Частота кадров                           : 31,250 кадров/сек (1536 spf)
Метод сжатия                             : С потерями
Размер потока                            : 68,6 Мбайт (2%)
Язык                                     : Russian
Default                                  : Да
Forced                                   : Нет

Аудио #2
Идентификатор                            : 3
Формат                                   : AC-3
Формат/Информация                        : Audio Coding 3
Расширение режима                        : CM (complete main)
Параметр Endianness формата              : Big
Идентификатор кодека                     : A_AC3
Продолжительность                        : 49 м.
Вид битрейта                             : Постоянный
Битрейт                                  : 384 Кбит/сек
Каналы                                   : 6 каналов
Расположение каналов                     : Front: L C R, Side: L R, LFE
Частота                                  : 48,0 КГц
Частота кадров                           : 31,250 кадров/сек (1536 spf)
Метод сжатия                             : С потерями
Размер потока                            : 137 Мбайт (4%)
Язык                                     : English
Default                                  : Нет
Forced                                   : Нет

Текст #1
Идентификатор                            : 4
Формат                                   : UTF-8
Идентификатор кодека                     : S_TEXT/UTF8
Идентификатор кодека/Информация          : UTF-8 Plain Text
Продолжительность                        : 39 м.
Битрейт                                  : 16 бит/сек
Count of elements                        : 83
Размер потока                            : 4,68 Кбайт (0%)
Заголовок                                : FORCED
Язык                                     : Russian
Default                                  : Да
Forced                                   : Нет

Текст #2
Идентификатор                            : 5
Формат                                   : UTF-8
Идентификатор кодека                     : S_TEXT/UTF8
Идентификатор кодека/Информация          : UTF-8 Plain Text
Продолжительность                        : 42 м.
Битрейт                                  : 58 бит/сек
Count of elements                        : 407
Размер потока                            : 18,1 Кбайт (0%)
Заголовок                                : FULL
Язык                                     : Russian
Default                                  : Нет
Forced                                   : Нет

Текст #3
Идентификатор                            : 6
Формат                                   : UTF-8
Идентификатор кодека                     : S_TEXT/UTF8
Идентификатор кодека/Информация          : UTF-8 Plain Text
Продолжительность                        : 49 м.
Битрейт                                  : 41 бит/сек
Count of elements                        : 488
Размер потока                            : 15,3 Кбайт (0%)
Заголовок                                : Original
Язык                                     : English
Default                                  : Нет
Forced                                   : Нет
Когда раздача ведётся путём добавления новых серий, при каждом добавлении создётся новый торрент. Чтобы начать докачку новой серии, пользователям необходимо сделать следующее:
(1) остановить скачивание,
(2) удалить старый торрент у себя из клиента (старые серии удалять не надо),
(3) скачать новый торрент и запустить его у себя в клиенте вместо старого, при этом указать клиенту путь в старую папку, куда и должно происходить скачивание новых серий.
Ваш клиент при этом должен произвести хеширование (проверку) старой папки (если не производит сам - помогите ему сделать это), и будет докачивать только те серии, которых у вас ещё нет. Старые серии при этом не удаляются, а продолжают раздаваться!
Eсли вы уже удалили старые серии, то предотвратить повторную закачку старых серий можно, отжав галочку в соответсвующих местах при запуске нового торрента. По возможности, желательно не удалять старые серии как можно дольше, чтобы релизёр не столько продолжал раздавать старые серии, а смог сконцентрироваться на новых.


Трекер:  [ 17-Июл-2017 05:54 ]

  

Скачать .torrent

Размер .torrent файла 18 KB


Размер: 3.59 GB
Хэш (hash) релиза: d6b991cbcc77e209c2a68c9014f03fa1a4c59380
Подписка на обновления:

Торренты, похожие на Игра престолов Game of Thrones скачать торрент

Форум Название Автор Размер S L Добавлен
Зарубежные сериалы ·· Игра Престолов / Game of Thrones / Сезон: 7 / Серии: 1 из 7 (Алан Тейлор, Даниэль Минахан, Дэвид Наттер) [2017, США, Фэнтези, драма, приключения, экранизация, WEBRip] MVO (AMS) + Original Eng + Subs (Rus, Eng) Galfimbul 13238170841.23 GB 3 0 1500549971

14:26

20-Июл-17

Зарубежные сериалы ·· Игра Престолов / Game of Thrones / Сезон: 7 / Серии: 1 из 7 (Алан Тейлор, Даниэль Минахан, Дэвид Наттер) [2017, США, Фэнтези, драма, приключения, экранизация, WEBRip 1080p] MVO (AMS) + Original Eng + Subs (Rus, Eng) Galfimbul 40595350273.78 GB 2 0 1500521112

06:25

20-Июл-17

Зарубежные сериалы ·· Игра Престолов / Game of Thrones / Сезон: 7 / Серии: 1 из 7 (Алан Тейлор, Даниэль Минахан, Дэвид Наттер) [2017, США, Фэнтези, драма, приключения, экранизация, WEBRip 720p] MVO (AMS) + Original Eng + Subs (Rus, Eng) Galfimbul 16280128371.52 GB 0 0 1500519268

05:54

20-Июл-17

Зарубежные сериалы ·· Игра престолов / Game of Thrones / Сезон: 7 / Серии: 1 из 7 (Алан Тейлор, Даниэль Минахан, Дэвид Наттер) [2017, США, Фэнтези, драма, приключения, экранизация, WEB-DLRip] MVO (LostFilm) Galfimbul 784144384748 MB 3 0 1500405949

22:25

18-Июл-17

Зарубежные сериалы ·· Игра престолов / Game of Thrones / Сезон: 7 / Серии: 1 из 7 (Алан Тейлор, Даниэль Минахан, Дэвид Наттер) [2017, США, Фэнтези, драма, приключения, экранизация, WEB-DL 1080p] MVO (LostFilm) + Original Galfimbul 34946795063.25 GB 2 0 1500405936

22:25

18-Июл-17

Зарубежные сериалы ·· Игра престолов / Game of Thrones / Сезон: 7 / Серии: 1 из 7 (Алан Тейлор, Даниэль Минахан, Дэвид Наттер) [2017, США, Фэнтези, драма, приключения, экранизация, WEB-DL 1080p] MVO (LostFilm) + Original + Subs (Rus, Eng) Galfimbul 38529330393.59 GB 2 0 1500405931

22:25

18-Июл-17

Зарубежные сериалы ·· Игра престолов / Game of Thrones / Сезон: 7 / Серии: 1 из 7 (Алан Тейлор, Даниэль Минахан, Дэвид Наттер) [2017, США, Фэнтези, драма, приключения, экранизация, WEB-DL 720p] MVO (LostFilm) + Original + Subs (Rus, Eng) Galfimbul 14214101081.32 GB 4 0 1500405926

22:25

18-Июл-17

Зарубежные сериалы ·· Игра престолов / Game of Thrones / Сезон: 7 / Серии: 1 из 7 (Алан Тейлор, Даниэль Минахан, Дэвид Наттер) [2017, США, Фэнтези, драма, приключения, экранизация, WEBRip] MVO (FOX) + Original Galfimbul 734941184701 MB 0 0 1500398680

20:24

18-Июл-17

Зарубежные сериалы ·· Игра престолов / Game of Thrones / Сезон: 7 / Серии: 1 из 7 (Алан Тейлор, Даниэль Минахан, Дэвид Наттер) [2017, США, Фэнтези, драма, приключения, экранизация, WEBRip 720p] MVO (FOX) + Original Galfimbul 12924846891.2 GB 2 0 1500398675

20:24

18-Июл-17

Зарубежные сериалы ·· Игра престолов / Game of Thrones / Сезон: 7 / Серии: 1 из 7 (Алан Тейлор, Даниэль Минахан, Дэвид Наттер) [2017, США, Фэнтези, драма, приключения, экранизация, WEBRip] DVO (Gears Media) + Original Galfimbul 696807876665 MB 0 0 1500394923

19:22

18-Июл-17

Зарубежные сериалы ·· Игра престолов / Game of Thrones / Сезон: 7 / Серии: 1 из 7 (Алан Тейлор, Даниэль Минахан, Дэвид Наттер) [2017, США, Фэнтези, драма, приключения, экранизация, WEB-DL 720p] DVO (Gears Media) + Original Galfimbul 15098707181.41 GB 2 0 1500391551

18:25

18-Июл-17

Зарубежные сериалы ·· Игра престолов / Game of Thrones / Сезон: 7 / Серии: 1 из 7 (Алан Тейлор, Даниэль Минахан, Дэвид Наттер) [2017, США, Фэнтези, драма, приключения, экранизация, WEB-DLRip/AVI/XviD] MVO (FOX) + Original Galfimbul 849960582811 MB 2 0 1500317763

21:56

17-Июл-17

Зарубежные сериалы ·· Игра престолов / Game of Thrones / Сезон: 7 / Серии: 1 из 7 (Алан Тейлор, Даниэль Минахан, Дэвид Наттер) [2017, США, Фэнтези, драма, приключения, экранизация, WEB-DL 1080p] Dub (FOX HD) + Original Galfimbul 18535326911.73 GB 11 0 1500312307

20:25

17-Июл-17

Зарубежные сериалы ·· Игра престолов / Game of Thrones / Сезон: 7 / Серии: 1 из 7 (Алан Тейлор, Даниэль Минахан, Дэвид Наттер) [2017, США, Фэнтези, драма, приключения, экранизация, HDTVRip 720p] Dub (Amedia - Kravec) Galfimbul 14327841621.33 GB 6 0 1500260089

05:54

17-Июл-17

Зарубежные сериалы ·· Игра престолов / Game of Thrones / Сезон: 7 / Серии: 1 из 7 (Алан Тейлор, Даниэль Минахан, Дэвид Наттер) [2017, США, Фэнтези, драма, приключения, экранизация, HDTVRip] Dub (Amedia - Kravec) Galfimbul 839184384800 MB 0 0 1500259901

05:51

17-Июл-17

Зарубежные сериалы ·· Игра престолов / Game of Thrones / Сезон: 1 / Серии: 1 из 7 (Адам Дэвидсон, Иэн Б. МакДональд) [2017, США, Фэнтези, драма, приключения, экранизация, WEBRip 1080p] MVO (OmskBird) Galfimbul 38235913583.56 GB 2 0 1500305083

18:24

17-Июл-17

Зарубежные сериалы ·· Игра престолов / Game of Thrones / Сезон: 7 / Серии: 1 из 10 (Алан Тейлор, Дэвид Наттер / Alan Taylor, David Nutter) [2016, Фэнтези, драма, приключения, экранизация, WEB-DLRip] Dub (Екатерина Кузнецова) + Original Galfimbul 736167920702 MB 1 2 1473790955

21:22

13-Сен-16

Зарубежные сериалы ·· Игра престолов / Game of Thrones / Сезон: 6 / Серии: 1-7 из 10 (Алан Тейлор, Даниэль Минахан, Дэвид Наттер) [2016, США, Фэнтези, драма, приключения, экранизация, BDRip 1080p] MVO (LostFilm) + DUB (Amedia-Kravec) + Original + Subs (Rus, Eng) Galfimbul 3282672971930.57 GB 1 3 1482427411

20:23

22-Дек-16

Зарубежные сериалы ·· Игра престолов / Game of Thrones / Сезон: 6 / Серии: 1-7 из 10 (Джереми Подесва, Марк Майлод) [2016, США, Фэнтези, драма, приключения, BDRemux 1080p] DUB (Amedia) + 5xMVO (LostFilm, AlexFilm, NewStudio, FocusStudio, Omikron) + Original Galfimbul 7751373843472.19 GB 0 0 1479465994

13:46

18-Ноя-16

Еще никто не оставлял запись к записи скачать торрент Игра престолов Game of Thrones . Будь первым!

!Обратная связь