Scooby-Doo! Night of 100 Frights (PS2) 2002 | GTA Grand Theft Auto V (PC) | With Subs Found

Скачать через торрент Зип и Зап, и остров Капитана Zipi y Zape y la Isla del Capitán Фильм бесплатно в хорошем качестве torrent

Скачивайте на UnionPeer.org фильмы через торрент без регистрации. Новинки кино в хорошем качестве через торрент. На UnionPeer.org можно скачать через торрент фильмы 2014 и 2015 годов. Самые новые фильмы.

Скачать торрент Зип и Зап, и остров Капитана Zipi y Zape y la Isla del Capitán бесплатно через .torrent фильм мультфильм сериал

Если у вас наблюдаются проблемы со скриншотами, переходом по ссылками, скачиванием торрентов - проблемы в блокировщике рекламы AdBlock. #хорошегоДня!


Статистика раздачи
Размер:  747 MB   |    Зарегистрирован:  6 дней   |    .torrent скачан:  33 раза   |   
Раздают:  1  
   
Загрузка...
 
Автор Сообщение

Galfimbul

avatar Galfimbul


Зип и Зап, и остров Капитана / Zipi y Zape y la Isla del Capitán / Zip & Zap and the Captain's Island

Страна: Испания
Жанр: комедия, приключения, семейный
Год выпуска: 2016
Продолжительность: 01:44:37

Перевод: Любительский (многоголосый закадровый) (GreenРай Studio)
Субтитры: нет
Режиссер: Оскар Сантос Гомес / Oskar Santos

В ролях: Елена Анайя, Каролина Лапауса, Тео Планель, Максим Пастор, Гойсальде Нуньес, Хорхе Бош, Тони Гомес, Том Уилтон, Ферми Рейксач

Описание:Проказники Зип и Зап оказываются наказанными в самый канун Рождества. Теперь вместо того, чтобы наслаждаться зимними каникулами, они должны сопровождать своих родителей в деловой поездке на отдаленный остров. Однако ужасный шторм нарушает все планы, и семья вынуждена искать временное прибежище в доме эксцентричной мисс Пам, где дети без семей наслаждаются райской жизнью без правил. В компании своих новых друзей братьям Зипу и Запу предстоит раскрыть множество секретов, а также узнать, что таинственное исчезновение их родителей посреди ночи имеет отношение к скелетам, которые хранят в своих шкафах странные обитатели этого острова.

Сэмпл: http://multi-up.com/847356

Качество видео: HDRip (исходник BDRip 720p)
Формат видео: AVI

Видео: Xvid 688x288 23.976fps 860kbps
Аудио: MPEG Audio Layer 3 48000Hz stereo 128kbps
General
Complete name : C:\Zipi.Y.Zape.Y.La.Isla.Del.Capitan.2016.HDRip.avi
Format : AVI
Format/Info : Audio Video Interleave
File size : 747 MiB
Duration : 1h 44mn
Overall bit rate : 998 Kbps
Writing application : VirtualDubMod 1.5.10.3 | www.virtualdub-fr.org || (build 2550/release)
Writing library : VirtualDubMod build 2550/release

Video
ID : 0
Format : MPEG-4 Visual
Format profile : Advanced [email protected]
Format settings, BVOP : 1
Format settings, QPel : No
Format settings, GMC : No warppoints
Format settings, Matrix : Custom
Codec ID : XVID
Codec ID/Hint : XviD
Duration : 1h 44mn
Bit rate : 861 Kbps
Width : 688 pixels
Height : 288 pixels
Display aspect ratio : 2.40:1
Frame rate : 23.976 fps
Color space : YUV
Chroma subsampling : 4:2:0
Bit depth : 8 bits
Scan type : Progressive
Compression mode : Lossy
Bits/(Pixel*Frame) : 0.181
Stream size : 644 MiB (86%)
Writing library : XviD 73

Audio
ID : 1
Format : MPEG Audio
Format version : Version 1
Format profile : Layer 3
Codec ID : 55
Codec ID/Hint : MP3
Duration : 1h 44mn
Bit rate mode : Constant
Bit rate : 128 Kbps
Channel(s) : 2 channels
Sampling rate : 48.0 KHz
Compression mode : Lossy
Stream size : 95.8 MiB (13%)
Alignment : Aligned on interleaves
Interleave, duration : 42 ms (1.00 video frame)
Interleave, preload duration : 504 ms
Writing library : LAME3.99r
Encoding settings : -m s -V 4 -q 2 -lowpass 17 -b 128


Трекер:  [ 17-Июл-2017 16:01 ]

  

Скачать .torrent

Размер .torrent файла 15 KB


Размер: 747 MB
Хэш (hash) релиза: 370527a8eff101cda915fc0d6183e2b016482d13
Подписка на обновления:

Торренты, похожие на Зип и Зап, и остров Капитана Zipi y Zape y la Isla del Capitán скачать торрент

Форум Название Автор Размер S L Добавлен
Зарубежные фильмы 2016-2017 (Новинки зарубежного кино) ·· Зип и Зап, и остров Капитана / Zipi y Zape y la Isla del Capitán / Zip & Zap and the Captain's Island (Оскар Сантос Гомес / Oskar Santos) [2016, Испания, комедия, приключения, семейный, HDRip] Sub Rus (jojag) + Original Spa Galfimbul 15729838631.46 GB 0 0 1496596070

20:07

4-Июн-17

Еще никто не оставлял запись к записи скачать торрент Зип и Зап, и остров Капитана Zipi y Zape y la Isla del Capitán . Будь первым!

!Обратная связь