1x7 saison x episode Shadowhunters | Ron Underwood | La fee clochette et la creature legendaire

Скачать через торрент Стефан Цвейг Stefan Zweig: Farewell to Europe Фильм бесплатно в хорошем качестве torrent

Скачивайте на UnionPeer.org фильмы через торрент без регистрации. Новинки кино в хорошем качестве через торрент. На UnionPeer.org можно скачать через торрент фильмы 2014 и 2015 годов. Самые новые фильмы.

Скачать торрент Стефан Цвейг Stefan Zweig: Farewell to Europe бесплатно через .torrent фильм мультфильм сериал

Если у вас наблюдаются проблемы со скриншотами, переходом по ссылками, скачиванием торрентов - проблемы в блокировщике рекламы AdBlock. #хорошегоДня!


Статистика раздачи
Размер:  1.47 GB   |    Зарегистрирован:  6 дней   |    .torrent скачан:  53 раза   |   
Раздают:  3  
   
Загрузка...
 
Автор Сообщение

Galfimbul

avatar Galfimbul


Стефан Цвейг / Stefan Zweig: Farewell to Europe / Vor der Morgenröte

Страна: Австрия, Германия, Франция
Жанр: драма
Год выпуска: 2016
Продолжительность: 01:46:02

Перевод: Одноголосый закадровый (visanti-vasaer)
Субтитры: русские, английские
Оригинальная аудиодорожка: Немецкий, португальский, английский

Режиссер: Мария Шрадер / Maria Schrader

В ролях: Томас Лемаркус, Барбара Зукова, Йозеф Хадер, Чарли Хюбнер, Ленн Кудрявицки, Кристина ду Рего, Иван Шведов, Харви Фридман, Мануэль Кортес, Николау Брейнер

Описание: Стефан Цвейг подобно сотням европейцев в предчувствии Второй мировой бежит из Старого Света. Из Рио-де-Жанейро в Буэнос-Айрес, из Нью-Йорка снова в Рио. И пусть ему и нравится новая жизнь в уютном бразильском предместье, душа его осталась дома.

Доп. информация: Фильм выдвинут Австрией на премию «Оскар» за лучший фильм на иностранном языке в 2017г.

Сэмпл: http://yadi.sk/i/nIKI4yw-3L4o8t

Качество видео: HDRip
Формат видео: AVI

Видео: XviD, 720x304, 24,000 fps, 1584 kbps
Аудио: AC3 48,0 КГц, 2ch, 192 Кбит/сек, русский
Аудио 2: AC3 48,0 КГц, 2ch, 192 Кбит/сек немецкий
Формат субтитров: softsub (SRT)
Формат : AVI
Формат/Информация : Audio Video Interleave
Размер файла : 1,47 Гбайт
Продолжительность : 1 ч. 46 м.
Общий поток : 1981 Кбит/сек
Программа кодирования : VirtualDubMod 1.5.10.3 | www.virtualdub-fr.org || (build 2550/release)
Библиотека кодирования : VirtualDubMod build 2550/release

Видео
Идентификатор : 0
Формат : MPEG-4 Visual
Профиль формата : Advanced [email protected]
Параметр BVOP формата : 1
Параметр QPel формата : Нет
Параметр GMC формата : Без точки перехода
Параметр матрицы формата : Default (H.263)
Идентификатор кодека : DX50
Идентификатор кодека/Подсказка : DivX 5
Продолжительность : 1 ч. 46 м.
Битрейт : 1584 Кбит/сек
Ширина : 720 пикселей
Высота : 304 пикселя
Соотношение сторон : 2,35:1
Частота кадров : 24,000 кадра/сек
Цветовое пространство : YUV
Субдискретизация насыщенности : 4:2:0
Битовая глубина : 8 бит
Тип развёртки : Прогрессивная
Метод сжатия : С потерями
Бит/(Пиксели*Кадры) : 0.301
Размер потока : 1,17 Гбайт (80%)
Библиотека кодирования : XviD 1.2.1 (UTC 2008-12-04)

Аудио #1
Идентификатор : 1
Формат : AC-3
Формат/Информация : Audio Coding 3
Расширение режима : CM (complete main)
Параметр Endianness формата : Big
Идентификатор кодека : 2000
Продолжительность : 1 ч. 46 м.
Вид битрейта : Постоянный
Битрейт : 192 Кбит/сек
Каналы : 2 канала
Расположение каналов : Front: L R
Частота : 48,0 КГц
Частота кадров : 31,250 кадров/сек (1536 spf)
Битовая глубина : 16 бит
Метод сжатия : С потерями
Размер потока : 146 Мбайт (10%)
Выравнивание : Разделение по промежуткам
Продолжительность промежутка : 42 мс. (1,00 видеокадр)
Время предзагрузки промежутка : 500 мс.

Аудио #2
Идентификатор : 2
Формат : AC-3
Формат/Информация : Audio Coding 3
Расширение режима : CM (complete main)
Параметр Endianness формата : Big
Идентификатор кодека : 2000
Продолжительность : 1 ч. 46 м.
Вид битрейта : Постоянный
Битрейт : 192 Кбит/сек
Каналы : 2 канала
Расположение каналов : Front: L R
Частота : 48,0 КГц
Частота кадров : 31,250 кадров/сек (1536 spf)
Битовая глубина : 16 бит
Метод сжатия : С потерями
Размер потока : 146 Мбайт (10%)
Выравнивание : Разделение по промежуткам
Продолжительность промежутка : 42 мс. (1,00 видеокадр)
Время предзагрузки промежутка : 500 мс.


Трекер:  [ 17-Июл-2017 16:01 ]

  

Скачать .torrent

Размер .torrent файла 15 KB


Размер: 1.47 GB
Хэш (hash) релиза: bb3909883d213c6e003de8e12fbbe560b8f522d1
Подписка на обновления:

Еще никто не оставлял запись к записи скачать торрент Стефан Цвейг Stefan Zweig: Farewell to Europe . Будь первым!

!Обратная связь