El oso y la doncella | Reality Kings | Before And After Science (VINYL) – Brian Eno (2017)

Скачать через торрент Окча Okja Фильм бесплатно в хорошем качестве torrent

Скачивайте на UnionPeer.org фильмы через торрент без регистрации. Новинки кино в хорошем качестве через торрент. На UnionPeer.org можно скачать через торрент фильмы 2014 и 2015 годов. Самые новые фильмы.

Скачать торрент Окча Okja бесплатно через .torrent фильм мультфильм сериал

Если у вас наблюдаются проблемы со скриншотами, переходом по ссылками, скачиванием торрентов - проблемы в блокировщике рекламы AdBlock. #хорошегоДня!


Статистика раздачи
Размер:  1.45 GB   |    Зарегистрирован:  6 дней   |    .torrent скачан:  58 раз   |   
Раздают:  2  
   
Загрузка...
 
Автор Сообщение

Galfimbul

avatar Galfimbul


Окча / Okja

Страна: США, Корея Южная
Жанр: боевик, драма, приключения
Год выпуска: 2017
Продолжительность: 02:01:20

Перевод: Профессиональный (многоголосый закадровый) AlexFilm
Субтитры: нет
Режиссер: Пон Джун-хо / Bong Joon-ho

В ролях: Тильда Свинтон, Лили Коллинз, Джейк Джилленхол, Стивен Ян, Пол Дано, Дэниэл Хеншэлл, Девон Бостик

Описание: На протяжении десяти лет большой зверь Окча был лучшим другом девочки Ми-джа. Они мирно жили в южнокорейских горах и заботились друг о друге. Но в один ужасный день идиллическая жизнь друзей прервалась — представители международного конгломерата «Мирандо Корпорейшн» украли Окчу и привезли в Нью-Йорк. У стервозной генеральной директрисы Люси Мирандо свои, не самые гуманные, планы на необычного зверя. Конечно же, храбрая девочка не бросит друга в беде, и Ми-джа отправляется спасать Окчу, но мир оказывается намного безумней, чем она могла себе представить....

Сэмпл: http://multi-up.com/1161405

Качество видео: WEBRip (Исходник Окча [Okja] 2017 [WEBRip-1080p].mkv)
Формат видео: AVI

Видео: XviD 73, 720x304, (2,35:1), 24,000 fps, 1325 Кбит/с, 8 бит, 0.25 bit/pixel
Аудио: Русский (АС3, 6 ch (Front: L C R, Side: L R, LFE), 48,0 KHz, 384 Kbps)
Общее
Полное имя : F:\Видеофильмы\В и д е о\Окча ( боевик, драма, приключения 2017 год).avi
Формат : AVI
Формат/Информация : Audio Video Interleave
Размер файла : 1,45 Гбайт
Продолжительность : 2 ч. 0 м.
Общий поток : 1719 Кбит/сек
Программа кодирования : VirtualDubMod 1.5.10.2 (build 2540/release)
Библиотека кодирования : VirtualDubMod build 2540/release

Видео
Идентификатор : 0
Формат : MPEG-4 Visual
Профиль формата : Advanced [email protected]
Параметр BVOP формата : 2
Параметр QPel формата : Нет
Параметр GMC формата : Без точки перехода
Параметр матрицы формата : Выборочная
Идентификатор кодека : XVID
Идентификатор кодека/Подсказка : XviD
Продолжительность : 2 ч. 0 м.
Битрейт : 1325 Кбит/сек
Ширина : 720 пикселей
Высота : 304 пикселя
Соотношение сторон : 2,35:1
Частота кадров : 24,000 кадра/сек
Цветовое пространство : YUV
Субдискретизация насыщенности : 4:2:0
Битовая глубина : 8 бит
Тип развёртки : Прогрессивная
Метод сжатия : С потерями
Бит/(Пиксели*Кадры) : 0.252
Размер потока : 1,12 Гбайт (77%)
Библиотека кодирования : XviD 73

Аудио
Идентификатор : 1
Формат : AC-3
Формат/Информация : Audio Coding 3
Расширение режима : CM (complete main)
Параметр Endianness формата : Big
Идентификатор кодека : 2000
Продолжительность : 2 ч. 0 м.
Вид битрейта : Постоянный
Битрейт : 384 Кбит/сек
Каналы : 6 каналов
Расположение каналов : Front: L C R, Side: L R, LFE
Частота : 48,0 КГц
Частота кадров : 31,250 кадров/сек (1536 spf)
Метод сжатия : С потерями
Размер потока : 332 Мбайт (22%)
Выравнивание : Разделение по промежуткам
Продолжительность промежутка : 42 мс. (1,00 видеокадр)
Время предзагрузки промежутка : 500 мс.


Трекер:  [ 17-Июл-2017 16:01 ]

  

Скачать .torrent

Размер .torrent файла 15 KB


Размер: 1.45 GB
Хэш (hash) релиза: 32581a711588f9973da8d9d85f796896c4097706
Подписка на обновления:

Торренты, похожие на Окча Okja скачать торрент

Форум Название Автор Размер S L Добавлен
Зарубежные фильмы 2016-2017 (Новинки зарубежного кино) ·· Окча / Okja (Пон Чжун-о / Bong Joon-ho) [2017, США, Южная Корея, Драма, WEBRip 1080p] Galfimbul 70669743276.58 GB 2 0 1499935216

11:40

13-Июл-17

Зарубежные фильмы 2016-2017 (Новинки зарубежного кино) ·· Окча / Okja (Пон Чжун-о / Bong Joon-ho) [2017, США, Южная Корея, Драма, WEB-DLRip] DVO (Колобок) Galfimbul 26557296972.47 GB 0 0 1499328072

11:01

6-Июл-17

Зарубежные фильмы 2016-2017 (Новинки зарубежного кино) ·· Окча / Okja (Пон Джун-хо) [2017, фантастика, боевик, драма, приключения, WEBRip] Galfimbul 23337623242.17 GB 4 0 1498886432

08:20

1-Июл-17

Зарубежные фильмы 2016-2017 (Новинки зарубежного кино) ·· Окча / Okja (Пон Джун-хо / Bong Joon-ho) [2017, США, Фантастика, боевик, драма, приключения, WEBRip] VO (BadBajo) + Original (Eng) + Subs (Rus, Eng) Galfimbul 19140928191.78 GB 0 0 1498768220

23:30

29-Июн-17

Зарубежные фильмы 2016-2017 (Новинки зарубежного кино) ·· Окча / Okja (Пон Джун-хо) [2017, фантастика, боевик, драма, приключения, WEBRip 720p] Sub Galfimbul 28307012352.64 GB 2 0 1498722650

10:50

29-Июн-17

Еще никто не оставлял запись к записи скачать торрент Окча Okja . Будь первым!

!Обратная связь