HoodyBaby Ц Kitchen 24: Slangin Off Key | Szene Talk | Cheryl Hines

Скачать через торрент МакГи и Я! McGee and Me! Фильм бесплатно в хорошем качестве torrent

Скачивайте на UnionPeer.org фильмы через торрент без регистрации. Новинки кино в хорошем качестве через торрент. На UnionPeer.org можно скачать через торрент фильмы 2014 и 2015 годов. Самые новые фильмы.

Скачать торрент МакГи и Я! McGee and Me! бесплатно через .torrent фильм мультфильм сериал

Если у вас наблюдаются проблемы со скриншотами, переходом по ссылками, скачиванием торрентов - проблемы в блокировщике рекламы AdBlock. #хорошегоДня!


Статистика раздачи
Размер:  2.78 GB   |    Зарегистрирован:  6 дней   |    .torrent скачан:  23 раза   |   
Раздают:  1  
   
Загрузка...
 
Автор Сообщение

Galfimbul

avatar Galfimbul


МакГи и Я! / McGee and Me!
Страна: США
Жанр: Приключения, семейные
Продолжительность: 28 мин.
Год выпуска: 1989-1993 г.
Перевод: Профессиональный (многоголосый закадровый)
Русские субтитры: Нет

Режиссер: Марк Каллингем / Mark Cullingham, Чак Боумен / Chuck Bowman, Стивен Стайл / Stephen Stiles

В ролях: Джо Дамманн / Joe Dammann, Кен К. Джонсон / Ken C. Johnson (голос МакГи), Терри Бозман / Terry Bozeman, Вон Тейлор / Vaughn Taylor, Сара Дамманн / Sarah Dammann, Челси Хертфорд / Chelsea Hertford, Джонни Грин / Johnny GreenОписание: Сериал рассказывает про 11-летнего Ника, семья которого переехала в незнакомый город. Как это водится, с первого же школьного дня мальчик привлекает к себе внимание местных хулиганов, находит друга и попадает в различные щекотливые ситуации. Советчиком Нику выступает МакГи - нарисованный мультипликационный персонаж, сошедший со страниц блокнота...Доп. информация: Спасибо пользователю mitro_fan с сайта blizzardkid за предоставленные исходники видео. | Релиз: Качество: DVDRip
Формат: AVI
Видео: 704x480 (3:2), 23,976 fps, XviD ~1750 kbps avg, 0.21 bit/pixel
Аудио 1: Русский, 48 kHz, MPEG Layer 3, 2 ch, ~192.00 kbps avg (Многоголосый закадровый)
Аудио 2: Английский, 48 kHz, MPEG Layer 3, 2 ch, ~192.00 kbps avg (Оригинал)


Альтернативные раздачи
Названия серий, у которых нет русского перевода отсутствуют в раздаче

1 сезон
01. Большая ложь / The Big Lie
02. Падение звезды / A Star in the Breaking
03. Неудачный побег / The Not-So-Great Escape
04. Skate Expectations
05. Торнадо / Twister and Shout
06. Конкурс / Back to the Drawing Board
07. Блестящий поступок / Do the Bright Thing
08. Take Me Out of the Ball Game
09. В канун Рождества / Twas the Fight Before Christmas

2 сезон
01. In the Nick of Time
02. The Blunder Years
03. Beauty and the Least
Формат : AVI
Формат/Информация : Audio Video Interleave
Размер файла : 432 Мбайт
Продолжительность : 28 м.
Общий поток : 2138 Кбит/сек
Программа кодирования : VirtualDubMod 1.5.10.3 | www.virtualdub-fr.org || (build 2550/release)
Библиотека кодирования : VirtualDubMod build 2550/release

Видео
Идентификатор : 0
Формат : MPEG-4 Visual
Профиль формата : Advanced [email protected]
Параметр BVOP формата : 4
Параметр QPel формата : Нет
Параметр GMC формата : Без точки перехода
Параметр матрицы формата : Default (MPEG)
Идентификатор кодека : XVID
Идентификатор кодека/Подсказка : XviD
Продолжительность : 28 м.
Битрейт : 1739 Кбит/сек
Ширина : 704 пикселя
Высота : 480 пикселей
Соотношение сторон : 3:2
Соотношение сторон в оригинале : 3:2
Частота кадров : 23,976 кадра/сек
Стандарт вещания : NTSC
Цветовое пространство : YUV
Субдискретизация насыщенности : 4:2:0
Битовая глубина : 8 бит
Тип развёртки : Прогрессивная
Метод сжатия : С потерями
Бит/(Пиксели*Кадры) : 0.215
Размер потока : 352 Мбайт (81%)
Библиотека кодирования : XviD 66

Аудио #1
Идентификатор : 1
Формат : MPEG Audio
Версия формата : Version 1
Профиль формата : Layer 3
Режим : Joint stereo
Идентификатор кодека : 55
Идентификатор кодека/Подсказка : MP3
Продолжительность : 28 м.
Вид битрейта : Постоянный
Битрейт : 192 Кбит/сек
Каналы : 2 канала
Частота : 48,0 КГц
Метод сжатия : С потерями
Размер потока : 38,8 Мбайт (9%)
Выравнивание : Разделение по промежуткам
Продолжительность промежутка : 42 мс. (1,00 видеокадр)
Время предзагрузки промежутка : 500 мс.

Аудио #2
Идентификатор : 2
Формат : MPEG Audio
Версия формата : Version 1
Профиль формата : Layer 3
Режим : Joint stereo
Идентификатор кодека : 55
Идентификатор кодека/Подсказка : MP3
Продолжительность : 28 м.
Вид битрейта : Постоянный
Битрейт : 192 Кбит/сек
Каналы : 2 канала
Частота : 48,0 КГц
Метод сжатия : С потерями
Размер потока : 38,8 Мбайт (9%)
Выравнивание : Разделение по промежуткам
Продолжительность промежутка : 42 мс. (1,00 видеокадр)
Время предзагрузки промежутка : 500 мс.
Внимание! Раздача ведется путем добавления новых серий; при каждом добавлении создается новый торрент. Чтобы начать докачку новой серии, пользователям необходимо сделать следующее: (1) остановить скачивание, (2) удалить старый торрент у себя из клиента (старые серии удалять не надо), (3) скачать новый торрент и запустить его у себя в клиенте вместо старого, при этом указать клиенту путь в старую папку куда и должно происходить скачивание новых серий.
Ваш клиент при этом должен произвести хеширование (проверку) старой папки (если не производит сам - помогите ему сделать это), и будет докачивать только те серии которых у вас еще нет. Старые серии при этом не удаляются, а продолжают раздаваться!
Eсли вы уже удалили старые серии, то предотвратить повторную закачку старых серий можно, отжав галочку в соответсвующих местах при запуске нового торрента.
<img class="smile" src="//static.t-ru.org/smiles/icon_arrow.gif" alt=""> Как закачать отдельный файл из торрента или докачать ранее пропущенные файлы торрента!


Трекер:  [ 17-Июл-2017 16:18 ]

  

Скачать .torrent

Размер .torrent файла 28 KB


Размер: 2.78 GB
Хэш (hash) релиза: 74d725da317045845504c11672bde027313760b8
Подписка на обновления:

Еще никто не оставлял запись к записи скачать торрент МакГи и Я! McGee and Me! . Будь первым!

!Обратная связь